viernes, 4 de agosto de 2017

GoT S07E04-Spoils of War- Episodio filtrado



Se filtro el episodio, no por los hackers sino porque HBO India fue la fuente...alguien apreto el botón que no debía...



Video
ID                                       : 1
Format                                   : AVC
Format/Info                              : Advanced Video Codec
Format profile                           : High@L4
Format settings, CABAC                   : Yes
Format settings, ReFrames                : 4 frames
Codec ID                                 : V_MPEG4/ISO/AVC
Duration                                 : 51mn 21s
Bit rate mode                            : Variable
Bit rate                                 : 7 858 Kbps
Maximum bit rate                         : 15.0 Mbps
Width                                    : 1 920 pixels
Height                                   : 1 080 pixels
Display aspect ratio                     : 16:9
Frame rate mode                          : Constant
Frame rate                               : 23.976 (24000/1001) fps
Color space                              : YUV
Chroma subsampling                       : 4:2:0
Bit depth                                : 8 bits
Scan type                                : Progressive
Bits/(Pixel*Frame)                       : 0.158
Stream size                              : 2.82 GiB (92%)
Default                                  : Yes
Forced                                   : No
Color range                              : Limited
Color primaries                          : BT.709
Transfer characteristics                 : BT.709
Matrix coefficients                      : BT.709

Audio
ID                                       : 2
Format                                   : E-AC-3
Format/Info                              : Audio Coding 3
Format settings, Endianness              : Big
Codec ID                                 : A_EAC3
Duration                                 : 51mn 21s
Bit rate mode                            : Constant
Bit rate                                 : 640 Kbps
Channel(s)                               : 6 channels
Channel positions                        : Front: L C R, Side: L R, LFE
Sampling rate                            : 48.0 KHz
Frame rate                               : 187.500 fps (256 spf)
Compression mode                         : Lossy
Delay relative to video                  : 7ms
Stream size                              : 235 MiB (8%)
Language                                 : English
Default                                  : Yes
Forced                                   : No

Text
ID                                       : 3
Format                                   : UTF-8
Codec ID                                 : S_TEXT/UTF8
Codec ID/Info                            : UTF-8 Plain Text
Duration                                 : 51mn 6s
Bit rate                                 : 48 bps
Count of elements                        : 617
Stream size                              : 18.0 KiB (0%)
Language                                 : English
Default                                  : No
Forced                                   : No

Menu
00:00:00.000                             : en:Stay Tuned
00:00:03.039                             : enPreviously On
00:01:28.039                             : en:Studio Logo
00:01:34.039                             : en:Opening Credits
00:03:22.039                             : en:The Lannisters leave with their spoils; Highgarden
00:06:03.039                             : en:Cersei and Tycho Nestoris discuss the repayment; King\'s Landing
00:07:39.039                             : en:Littlefinger has a gift for Bran; Winterfell
00:11:30.039                             : en:Arya arrives at home; Winterfell
00:17:23.039                             : en:The Stark children are reunited; Winterfell
00:20:47.039                             : en:Jon has something to show Daenerys; Dragonstone
00:25:43.039                             : Queen Daenerys receives the news about Casterly Rock; Dragonstone
00:28:25.039                             : en:Arya spars with Brienne; Winterfell
00:31:53.039                             : enDragonstone has an unexpected arrival; Dragonstone
00:35:50.039                             : en:The Lannisters\' march is interrupted; The Reach
00:49:32.039                             : en:End Credits
00:50:50.039                             : en:Next On
00:51:20.039                             : en:Online Extra

Online:





No hay comentarios.:

Publicar un comentario